ShareSpark.net

:::: Bollywood Zone => Bollywood Movies (Pre Releases) => Topic started by: shahzaibjaan on December 01, 2018, 01:22:53 PM

Title: 2.0 2018 Hindi 720p PRE DVDRip x264 [MW]
Post by: shahzaibjaan on December 01, 2018, 01:22:53 PM
2.0 2018 Hindi 720p PRE DVDRip x264 [MW]





(http://pichub.site/images/2018/12/01/2.md.jpg)






General
Format : Matroska
Format version : Version 4 / Version 2
File size : 1.37 GiB
Duration : 2 h 17 min
Overall bit rate : 1 425 kb/s1

Video
ID : 1
Format : AVC
Format/Info : Advanced Video Codec
Format profile : [email protected]
Format settings : CABAC / 4 Ref Frames
Format settings, CABAC : Yes
Format settings, RefFrames : 4 frames
Codec ID : V_MPEG4/ISO/AVC
Duration : 2 h 17 min
Bit rate : 1 300 kb/s
Width : 1 280 pixels
Height : 532 pixels
Display aspect ratio : 2.40:1
Frame rate mode : Constant
Frame rate : 25.000 FPS
Color space : YUV
Chroma subsampling : 4:2:0
Bit depth : 8 bits
Scan type : Progressive
Bits/(Pixel*Frame) : 0.076
Stream size : 1.24 GiB (91%)
Writing library : x264 core 155 r2901 7d0ff22
Default : Yes
Forced : No

Audio
ID : 2
Format : AAC
Format/Info : Advanced Audio Codec
Format profile : LC
Codec ID : A_AAC-2
Duration : 2 h 17 min
Bit rate : 128 kb/s
Channel(s) : 2 channels
Channel positions : Front: L R
Sampling rate : 48.0 kHz
Frame rate : 46.875 FPS (1024 SPF)
Compression mode : Lossy
Stream size : 126 MiB (9%)
Language : Hindi
Default : Yes
Forced : No






 :ss:




(http://pichub.site/images/2018/12/01/01_08_03.jpg)
(http://pichub.site/images/2018/12/01/01_16_21.jpg)
(http://pichub.site/images/2018/12/01/01_31_19.jpg)
(http://pichub.site/images/2018/12/01/01_38_16.jpg)
(http://pichub.site/images/2018/12/01/01_55_08.jpg)
(http://pichub.site/images/2018/12/01/01_56_40.jpg)
(http://pichub.site/images/2018/12/01/02_12_10.jpg)
(http://pichub.site/images/2018/12/01/03_.jpg)







 :download:





http://megaup.net/ao7p/

http://mirrorace.com/m/4btMi

http://uptobox.com/4ynxet5zdtu9

http://bdupload.info/ifpwjnz65wny

http://www.spaste.com/p/?c=r9LnkR0651

http://www.multiup.org/33adddf0a354c6d64ac700a573fe0bbf






(http://extraimage.net/images/2018/03/04/0b237756e3aeac97443c8c348b82e1a5.jpg)

(http://extraimage.net/images/2018/03/04/394520e151bc864f72879ad8e636f06c.jpg)



(http://extraimage.net/images/2017/01/23/7f4ee9130941f6c16858c2472cb12fcb.png)