+ ShareSpark.net »  :::: Bollywood Zone » Bollywood Movies (Pre Releases)
|- Manmarziyaan 2018 Hindi 720p PRE DVDRip x264 [MW]


Mastercard 10% Off

Manmarziyaan 2018 Hindi 720p PRE DVDRip x264 [MW]

0 Members and 1 Guest are viewing this topic.

September 19, 2018, 01:08:05 PM
  • ***************
  • Team SSX
  • Legend Member
  • ***
  • Topic Author
  • Thank You: 1809
  • Reputation: 552
  • Activity:
    100%
  • Country: pk
  • Posts: 1895
  • Topics: 1183
  • Join Date: Mar 2015
  • =$ Success Never Ends $=
Manmarziyaan 2018 Hindi 720p PRE DVDRip x264 [MW]








General
Format : Matroska
Format version : Version 4 / Version 2
File size : 1.27 GiB
Duration : 2 h 28 min
Overall bit rate : 1 229 kb/s

Video
ID : 1
Format : AVC
Format/Info : Advanced Video Codec
Format profile : [email protected]
Format settings : CABAC / 4 Ref Frames
Format settings, CABAC : Yes
Format settings, RefFrames : 4 frames
Codec ID : V_MPEG4/ISO/AVC
Duration : 2 h 28 min
Bit rate : 1 100 kb/s
Width : 1 280 pixels
Height : 532 pixels
Display aspect ratio : 2.40:1
Frame rate mode : Constant
Frame rate : 25.000 FPS
Color space : YUV
Chroma subsampling : 4:2:0
Bit depth : 8 bits
Scan type : Progressive
Bits/(Pixel*Frame) : 0.065
Stream size : 1.14 GiB (89%)
Writing library : x264 core 155 r2901 7d0ff22
Default : Yes
Forced : No

Audio
ID : 2
Format : AAC
Format/Info : Advanced Audio Codec
Format profile : LC
Codec ID : A_AAC-2
Duration : 2 h 28 min
Bit rate : 129 kb/s
Channel(s) : 2 channels
Channel positions : Front: L R
Sampling rate : 48.0 kHz
Frame rate : 46.875 FPS (1024 SPF)
Compression mode : Lossy
Stream size : 136 MiB (10%)
Language : Hindi
Default : Yes
Forced : No






 :ss:














 :download:



























Share this topic on FacebookShare this topic on GoogleShare this topic on MySpaceShare this topic on TwitterShare this topic on Yahoo




Tags:
 

Related Topics

  Subject / Started by Replies Last post
0 Replies
344 Views
Last post September 13, 2018, 03:44:41 AM
by Rabasha
0 Replies
419 Views
Last post September 19, 2018, 01:33:46 PM
by shahzaibjaan
0 Replies
712 Views
Last post September 19, 2018, 02:32:50 PM
by shahzaibjaan
0 Replies
542 Views
Last post September 26, 2018, 03:49:24 PM
by shahzaibjaan
1 Replies
174 Views
Last post November 07, 2018, 04:42:08 PM
by des83




Back to top